Zid (2014) Hindi HDRip 1080p Torrent Download

Movie

Zid

Cateogry

Bollywood

Year

2017

Language

Hindi

Views

1000
Description:

Complete name : C:Usersp a r t h oDo*censored*entsFree YouTube DownloaderZid (2014) Hindi HDRip 1080p x264 [SReeJoN].mp4
Format : MPEG-4
Format profile : Base Media
Codec ID : isom (isom/iso2/avc1/mp41)
File size : 1.77 GiB
Duration : 2 h 8 min
Overall bit rate : 1 965 kb/s
Writing application : Lavf54.63.104

[size='*censored*-large']Video [/size]

ID : 1
Format : AVC
Format/Info : Advanced Video Codec
Format profile : High@L4
Format settings, CABAC : Yes
Format settings, RefFrames : 3 frames
Codec ID : avc1
Codec ID/Info : Advanced Video Coding
Duration : 2 h 8 min
Bit rate : 1 833 kb/s
Width : 1 920 pixels
Height : 1 080 pixels
Display aspect ratio : 16:9
Frame rate mode : Constant
Frame rate : 25.000 FPS
Color space : YUV
Chroma subsampling : 4:2:0
Bit depth : 8 bits
Scan type : Progressive
Bits/(Pixel*Frame) : 0.035
Stream size : 1.65 GiB (93%)

[size='*censored*-large']Audio [/size]

ID : 2
Format : AAC
Format/Info : Advanced Audio Codec
Format profile : LC
Codec ID : 40
Duration : 2 h 8 min
Bit rate mode : Constant
Bit rate : 126 kb/s
Channel(s) : 2 channels
Channel positions : Front: L R
Sampling rate : 44.1 kHz
Frame rate : 43.066 FPS (1024 SPF)
Compression mode : Lossy
Stream size : 116 MiB (6%)
Default : Yes
Alternate group : 1