Murder.2004.Hindi.720p.HDRip Torrent Download

Movie

Murder

Cateogry

Bollywood

Year

2017

Language

Hindi

Director

Anurag Basu

Views

1000
Description:

Living in Bangkok with her husband Sudhir and the child from his first marriage to her sister, Simran feels isolated in a foreign land and ignored by her husband. A chance meeting with an old flame leads to a renewed and passionate affair until she starts to realise how badly she could be damaging her marriage. Sudhir has indeed become su*censored*ious and hired a private detective who gives him compelling evidence of his wife's deceit. Sudhir sets out to confront his rival.

 

 

 


General
Unique ID : 227249700480310980378585043429064540276 (0xAAF6B346E9E3B44499303B0883B98074)
Complete name : Murder.2004.Hindi.720p.HDRip.x264.AC3.-.Hon3y.mkv
Format : Matroska
Format version : Version 4 / Version 2
File size : 3.00 GiB
Duration : 2 h 9 min
Overall bit rate : 3 332 kb/s
Encoded date : UTC 2017-10-27 20:24:51
Writing application : mkvmerge v13.0.0 ('The Juggler') 64bit
Writing library : libebml v1.3.4 + libmatroska v1.4.5

Video
ID : 1
Format : AVC
Format/Info : Advanced Video Codec
Format profile : High@L4.1
Format settings : CABAC / 8 Ref Frames
Format settings, CABAC : Yes
Format settings, RefFrames : 8 frames
Codec ID : V_MPEG4/ISO/AVC
Duration : 2 h 9 min
Bit rate : 3 138 kb/s
Width : 1 280 pixels
Height : 544 pixels
Display aspect ratio : 2.35:1
Frame rate mode : Constant
Frame rate : 29.970 (30000/1001) FPS
Color space : YUV
Chroma subsampling : 4:2:0
Bit depth : 8 bits
Scan type : Progressive
Bits/(Pixel*Frame) : 0.150
Stream size : 2.83 GiB (94%)
Writing library : x264 core 152 r2851 ba24899
Encoding settings : cabac=1 / ref=8 / deblock=1:-1:-1 / *censored*yse=0x3:0x133 / me=umh / subme=9 / psy=1 / psy_rd=1.00:0.15 / mixed_ref=1 / me_range=16 / chroma_me=1 / trellis=2 / 8x8dct=1 / cqm=0 / deadzone=21,11 / fast_pskip=0 / chroma_qp_offset=-3 / threads=12 / lookahead_threads=1 / sliced_threads=0 / nr=500 / decimate=1 / interlaced=0 / bluray_compat=0 / constrained_intra=0 / bframes=3 / b_pyramid=2 / b_adapt=2 / b_bias=0 / direct=3 / weightb=1 / open_gop=0 / weightp=2 / keyint=250 / keyint_min=25 / scenecut=40 / intra_refresh=0 / rc_lookahead=60 / rc=2pass / mbtree=1 / bitrate=3138 / ratetol=1.0 / qcomp=0.60 / qpmin=0 / qpmax=69 / qpstep=4 / cplxblur=20.0 / qblur=0.5 / ip_ratio=1.40 / aq=1:1.00
Language : English
Default : Yes
Forced : No

Audio
ID : 2
Format : AC-3
Format/Info : Audio Coding 3
Format settings, Endianness : Big
Codec ID : A_AC3
Duration : 2 h 9 min
Bit rate mode : Constant
Bit rate : 192 kb/s
Channel(s) : 2 channels
Channel positions : Front: L R
Sampling rate : 44.1 kHz
Frame rate : 28.711 FPS (1536 SPF)
Bit depth : 16 bits
Compression mode : Lossy
Stream size : 177 MiB (6%)
Service kind : Complete Main
Default : Yes
Forced : No