Mann (1999) Aamir Khan _ Full HD Bollywood Romantic _ Movie 720p Torrent Download

Movie

Mann

Cateogry

Bollywood

Year

2017

Language

Hindi

Director

Indra Kumar

Views

1000
Description:

Mann (1999) Aamir Khan _ Full HD Bollywood Romantic _ Movie with Best Songs

 

Storyline
Karan Dev Singh and Priya Verma are to get married to their respective partners but before this could happen Karan who is a flirt manages to meet with Priya on a cruise that hails from Singapore to India. They meet, fight, befriend each other and eventually fall in love fully well knowing that their life partners are waiting. When it is time for their departure they agree to go about their lives without communicating with each other and promises to meet after a year. When it is time for them to meet Priya meets with a road accident which prevents them from meeting.

 

 

Code
General
Complete name : C:UsersALVYDo*censored*entsMann - Aamir Khan _ Full HD Bollywood Romantic _ Movie with Best Songs.mp4
Format : MPEG-4
Format profile : Base Media
Codec ID : isom (isom/iso2/avc1/mp41)
File size : 1.50 GiB
Duration : 2 h 53 min
Overall bit rate : 1 241 kb/s
Writing application : Lavf54.63.104

Video
ID : 1
Format : AVC
Format/Info : Advanced Video Codec
Format profile : Main@L3.1
Format settings, CABAC : Yes
Format settings, ReFrames : 3 frames
Codec ID : avc1
Codec ID/Info : Advanced Video Coding
Duration : 2 h 53 min
Bit rate : 1 107 kb/s
Width : 1 280 pixels
Height : 720 pixels
Display aspect ratio : 16:9
Frame rate mode : Constant
Frame rate : 30.000 FPS
Color space : YUV
Chroma subsampling : 4:2:0
Bit depth : 8 bits
Scan type : Progressive
Bits/(Pixel*Frame) : 0.040
Stream size : 1.34 GiB (89%)
Color range : Limited
Color primaries : BT.709
Transfer characteristics : BT.709
Matrix coefficients : BT.709

Audio
ID : 2
Format : AAC
Format/Info : Advanced Audio Codec
Format profile : LC
Codec ID : 40
Duration : 2 h 53 min
Bit rate mode : Constant
Bit rate : 126 kb/s
Channel(s) : 2 channels
Channel positions : Front: L R
Sampling rate : 44.1 kHz
Frame rate : 43.066 FPS (1024 spf)
Compression mode : Lossy
Stream size : 156 MiB (10%)
Default : Yes
Alternate group : 1