Kirrak Party (2018) Telugu HDRip Torrent Download

Movie

Kirrak Party

Cateogry

Tollywood

Year

2017

Language

Telugu

Views

1000
Description:

Plot: Krishna a first year student meets Meera a final year student and daughter of a police officer. Everyone in the campus likes Meera and even Krishna's friend. But Meera gets close to Krishna...
Actors: Nikhil Siddharth, Samyuktha Hegde, Simran Pareenja, Sai Suhas
Awards: N/A
Country: India

 

 

 

 

Format : Matroska
Format version : Version 4 / Version 2
File size : 713 MiB
Duration : 2 h 27 min
Overall bit rate : 677 kb/s
Movie name : www.TamilMV.cam

Video
ID : 1
Format : AVC
Format/Info : Advanced Video Codec
Format profile : High@L2.1
Format settings : CABAC / 4 Ref Frames
Format settings, CABAC : Yes
Format settings, ReFrames : 4 frames
Codec ID : V_MPEG4/ISO/AVC
Duration : 2 h 27 min
Bit rate : 576 kb/s
Width : 640 pixels
Height : 272 pixels
Display aspect ratio : 2.35:1
Frame rate mode : Constant
Frame rate : 24.000 FPS
Color space : YUV
Chroma subsampling : 4:2:0
Bit depth : 8 bits
Scan type : Progressive
Bits/(Pixel*Frame) : 0.138
Stream size : 610 MiB (86%)
Title : www.TamilMV.cam
Writing library : x264 core 148 r2744 b97ae06

Audio
ID : 2
Format : MPEG Audio
Format version : Version 1
Format profile : Layer 3
Format settings : Joint stereo / MS Stereo
Codec ID : A_MPEG/L3
Codec ID/Hint : MP3
Duration : 2 h 27 min
Bit rate mode : Constant
Bit rate : 96.0 kb/s
Channel(s) : 2 channels
Sampling rate : 44.1 kHz
Frame rate : 38.281 FPS (1152 SPF)
Compression mode : Lossy
Stream size : 101 MiB (14%)
Title : www.TamilMV.cam
Writing library : LAME3.99.5
Language : Telugu