Jet Trash 2016 720p WEB Torrent Download

Movie

Jet Trash

Cateogry

Bollywood

Year

2017

Language

English

Views

1000
Description:

Plot: Lee and Sol are hiding out on a beach in Southern India living a slacker life of *censored*, drugs and parties. Trouble comes to paradise when Vix, a beautiful girl from Lee's past, turns up. Things get worse when Lee accidentally kills a holy cow and the gang find themselves up against crooked cops, local hoodlums, gangsters.... and mysticism. How far do you have to go to get away?
Actors: Sofia Boutella, Robert Sheehan, Adelayo Adedayo, Jasper Pääkkönen
Awards: 1 nomination.
Country: UK, India
General
Unique ID : 281893905950073940951689346482170001223 (0xD412CA9D2F5BBC3BF16F623F85E47747)
Complete name : Jet Trash.2016.720p.WEB-DL.DD5.1.H264-CMRG.mkv
Format : Matroska
Format version : Version 4 / Version 2
File size : 2.71 GiB
Duration : 1h 24mn
Overall bit rate : 4 570 Kbps
Encoded date : UTC 2018-05-04 23:12:29
Writing application : mkvmerge v19.0.0 ('Brave Captain') 64-bit
Writing library : libebml v1.3.5 + libmatroska v1.4.8

Video
ID : 3
Format : AVC
Format/Info : Advanced Video Codec
Format profile : Main@L3.1
Format settings, CABAC : No
Format settings, ReFrames : 2 frames
Codec ID : V_MPEG4/ISO/AVC
Duration : 1h 24mn
Bit rate : 4 057 Kbps
Width : 1 280 pixels
Height : 536 pixels
Display aspect ratio : 2.40:1
Frame rate mode : Constant
Frame rate : 24.000 fps
Color space : YUV
Chroma subsampling : 4:2:0
Bit depth : 8 bits
Scan type : Progressive
Bits/(Pixel*Frame) : 0.246
Stream size : 2.40 GiB (89%)
Language : English
Default : Yes
Forced : No
Color range : Limited
Color primaries : BT.709
Transfer characteristics : BT.709
Matrix coefficients : BT.709

Audio #1
ID : 1
Format : AAC
Format/Info : Advanced Audio Codec
Format profile : LC
Codec ID : A_AAC
Duration : 1h 24mn
Bit rate : 126 Kbps
Channel(s) : 2 channels
Channel positions : Front: L R
Sampling rate : 48.0 KHz
Frame rate : 46.875 fps (1024 spf)
Compression mode : Lossy
Delay relative to video : -42ms
Stream size : 76.7 MiB (3%)
Language : English
Default : Yes
Forced : No