Ishqbaaz Hero (2018) Telugu Film Dubbed Into Hindi 720p Torrent Download

Movie

Ishqbaaz Hero

Cateogry

Tollywood

Year

2017

Language

India

Director

Stars

,

Views

1000
Description:

The movie story deals with Subramanyam a money-minded youth who goes to the US to earn big bucks. One day, he comes across Seetha who ditches her family for her long time boyfriend. As time passes by, Seetha gets cheated by her boyfriend and is left stranded in the states, when Subramanyam comes to Seetha’s rescue and solves her problems. The twist in the tale arises when Seetha requests Subramanyam to come along with her to India and clear the chaos which was created by her elopement. Subramanyam accepts to this proposal by demanding a huge amount. The couple lands in India and to their surprise, the entire family misunderstands them to be already married.[3] Meanwhile, Govind (Ajay), a dreaded don is after Subramanyam for him to marry his sister Durga . The rest of the story is about how Subramanyam escapes from the clutches of Govind, and how he keeps the secret of him not being Seetha's boyfriend. If they find out, what will be her family's reaction? This question forms the climax.

 


Code
General
Complete name : Ishqbaaz Hero (2018)Ishqbaaz Hero (2018) Telugu Film Dubbed Into Hindi.MP4
Format : MPEG-4
Format profile : Base Media / Version 2
Codec ID : mp42 (isom/mp42)
File size : 892 MiB
Duration : 2 h 2 min
Overall bit rate mode : Variable
Overall bit rate : 1 019 kb/s
Encoded date : UTC 2018-02-12 21:50:33
Tagged date : UTC 2018-02-12 21:50:33
gsst : 0
gstd : 7346073

Video
ID : 1
Format : AVC
Format/Info : Advanced Video Codec
Format profile : Main@L3.1
Format settings : CABAC / 3 Ref Frames
Format settings, CABAC : Yes
Format settings, RefFrames : 3 frames
Codec ID : avc1
Codec ID/Info : Advanced Video Coding
Duration : 2 h 2 min
Bit rate : 890 kb/s
Width : 1 280 pixels
Height : 720 pixels
Display aspect ratio : 16:9
Frame rate mode : Constant
Frame rate : 25.000 FPS
Color space : YUV
Chroma subsampling : 4:2:0
Bit depth : 8 bits
Scan type : Progressive
Bits/(Pixel*Frame) : 0.039
Stream size : 779 MiB (87%)
Title : ISO Media file produced by Google Inc. Created on: 02/12/2018.
Encoded date : UTC 2018-02-12 21:50:33
Tagged date : UTC 2018-02-12 21:50:33
Color range : Limited
Color primaries : BT.709
Transfer characteristics : BT.709
Matrix coefficients : BT.709

Audio
ID : 2
Format : AAC
Format/Info : Advanced Audio Codec
Format profile : LC
Codec ID : mp4a-40-2
Duration : 2 h 2 min
Bit rate mode : Variable
Bit rate : 126 kb/s
Channel(s) : 2 channels
Channel positions : Front: L R
Sampling rate : 44.1 kHz
Frame rate : 43.066 FPS (1024 SPF)
Compression mode : Lossy
Stream size : 110 MiB (12%)
Title : ISO Media file produced by Google Inc. Created on: 02/12/2018.
Encoded date : UTC 2018-02-12 21:50:33
Tagged date : UTC 2018-02-12 21:50:33