Hum Tumhare Hain Sanam (2002) 720p WEBHDRip Torrent Download

Movie

Hum Tumhare Hain Sanam

Cateogry

Bollywood

Year

2017

Language

Hindi

Views

1000
Description:

Plot: Radha and Suraj have been friends since childhood. Gopal has been in love with Radha ever since they spent a few years together as kids. Years later, Gopal's guardian proposes to Radha a marriage with Gopal, and she accepts. She finds a loving husband in Gopal, and when Gopal asks who she loves the most, first she lists her mother, then her brother, and in a voice-over she says that she loves Gopal the most. But Gopal thinks that Radha is spending too much time with Suraj, and starts to suspect them, so much so that he asks Radha to leave the house. After Radha leaves the house, she receives a divorce notice from Gopal, which tears her heart apart. When Suraj and her brother, Prashant find out about the divorce notice, they offer to go and talk to Gopal, but Radha does not permit this. Suraj then telephones Gopal and asks to meet him alone, Gopal agrees to meet him, and carries a loaded gun to this meeting....
Actors: Shah Rukh Khan, Madhuri Dixit, Salman Khan, Atul Agnihotri
Awards: N/A
Country: India

 

 

Code
General
Complete name : Hum Tumhare Hain Sanam (2002) 720p WEBHDRip x264 AAC ESubs LOKI - M2Tv
Format : Matroska
Format version : Version 2
File size : 1.40 GiB
Duration : 2 h 54 min
Overall bit rate : 1 144 kb/s

Video
Format : AVC
Format/Info : Advanced Video Codec
Format profile : High@L4.1
Format settings : CABAC / 5 Ref Frames
Format settings, CABAC : Yes
Format settings, RefFrames : 5 frames
Codec ID : V_MPEG4/ISO/AVC
Duration : 2 h 54 min
Bit rate : 1 014 kb/s
Width : 1 280 pixels
Height : 544 pixels
Display aspect ratio : 2.35:1
Frame rate mode : Constant
Frame rate : 25.000 FPS
Color space : YUV
Chroma subsampling : 4:2:0
Bit depth : 8 bits
Scan type : Progressive
Bits/(Pixel*Frame) : 0.058
Stream size : 1.24 GiB (89%)

Audio
Format : AAC
Format/Info : Advanced Audio Codec
Format profile : LC
Codec ID : A_AAC-2
Duration : 2 h 54 min
Bit rate : 128 kb/s
Channel(s) : 2 channels
Channel positions : Front: L R
Sampling rate : 48.0 kHz
Frame rate : 46.875 FPS (1024 SPF)
Compression mode : Lossy
Delay relative to video : 9 ms
Stream size : 160 MiB (11%)