Heyy Babyy 2007 1080p BluRay Torrent Download

Movie

Heyy Babyy

Cateogry

Bollywood

Year

2017

Language

Hindi

Director

Sajid Khan

Views

1000
Description:

Plot: Arush Mehra lives a fairly wealthy lifestyle in Sydney, Australia along with two room-mates, Tanmay Joglekar, and Ali Hyder. He works for a food chain, while Tanmay entertains children as 'Eddy Teddy', and Ali takes care of their apartment. All three are womanizers and usually end up sleeping with around 30 different women every year. Arush travels to Delhi to attend Arjun's wedding, and this is where he meets with Isha Sahni, who also resides in Australia, he impresses and wins her over, both get intimate, and shortly thereafter Isha catches him sleeping with Devika, and both split up. Arush returns to Sydney and forgets about this incident. Then one day they find a baby right outside their door with a note to take care of her. The trio suspect each other of being the father, then attempt to get rid of the child, but change their mind, look after her, name her Angel, adore her, and start a frantic and hilarious search for her mother. A few months later Isha shows up, takes Angel in her possession and returns home. The trio now mend their ways, and Arush attempts in vain to win back Isha, and ends up challenging her to marry someone else in 7 days. With Isha's attractive looks and wealthy background it will not be long before she finds someone to wed her, and by the look of things Arush may end up never seeing Angel ever again.
Actors: Juanna Sanghvi, Akshay Kumar, Fardeen Khan, Riteish Deshmukh
Awards: N/A
Country: India

 

Format : Matroska
Format version : Version 4 / Version 2
File size : 2.13 GiB
Duration : 2 h 24 min
Overall bit rate : 2 105 kb/s
Encoded date : UTC 2015-04-13 19:49:55
Writing application : mkvmerge v7.8.0 ('River Man') 64bit built on Mar 27 2015 16:31:37
Writing library : libebml v1.3.1 + libmatroska v1.4.2

Video
ID : 1
Format : AVC
Format/Info : Advanced Video Codec
Format profile : High@L4.1
Format settings, CABAC : Yes
Format settings, ReFrames : 5 frames
Codec ID : V_MPEG4/ISO/AVC
Duration : 2 h 24 min
Bit rate : 2 009 kb/s
Width : 1 904 pixels
Height : 816 pixels
Display aspect ratio : 2.35:1
Frame rate mode : Constant
Frame rate : 23.976 (24000/1001) FPS
Color space : YUV
Chroma subsampling : 4:2:0
Bit depth : 8 bits
Scan type : Progressive
Bits/(Pixel*Frame) : 0.054
Stream size : 2.03 GiB (95%)
Writing library : x264 core 146 r2538 121396c
Encoding settings : cabac=1 / ref=5 / deblock=1:-1:-1 / *censored*yse=0x3:0x113 / me=umh / subme=9 / psy=1 / psy_rd=1.00:0.15 / mixed_ref=1 / me_range=24 / chroma_me=1 / trellis=2 / 8x8dct=1 / cqm=0 / deadzone=21,11 / fast_pskip=0 / chroma_qp_offset=-3 / threads=12 / lookahead_threads=1 / sliced_threads=0 / nr=0 / decimate=1 / interlaced=0 / bluray_compat=0 / constrained_intra=0 / bframes=3 / b_pyramid=2 / b_adapt=2 / b_bias=0 / direct=3 / weightb=1 / open_gop=0 / weightp=2 / keyint=240 / keyint_min=23 / scenecut=40 / intra_refresh=0 / rc_lookahead=60 / rc=2pass / mbtree=1 / bitrate=2009 / ratetol=1.0 / qcomp=0.60 / qpmin=0 / qpmax=69 / qpstep=4 / cplxblur=20.0 / qblur=0.5 / vbv_maxrate=31250 / vbv_bufsize=31250 / nal_hrd=none / filler=0 / ip_ratio=1.40 / aq=1:1.00
Default : Yes
Forced : No
Color range : Limited
Color primaries : BT.709
Matrix coefficients : BT.709

Audio
ID : 2
Format : AAC
Format/Info : Advanced Audio Codec
Format profile : LC
Codec ID : A_AAC
Duration : 2 h 24 min
Bit rate : 93.4 kb/s
Channel(s) : 2 channels
Channel positions : Front: L R
Sampling rate : 48.0 kHz
Frame rate : 46.875 FPS (1024 spf)
Compression mode : Lossy
Stream size : 96.6 MiB (4%)
Default : Yes
Forced : No