Baazigar (1993) HDTV 720p Hindi Torrent Download

Movie

Baazigar

Cateogry

Bollywood

Year

2017

Language

Hindi

Views

1000
Description:

General
Unique ID : 34927830330183075922844203312641131620 (0x1A46DAFDA0750E3C700815A46636C464)
Complete name : C:UsersSHAHIDDownloadsVideoBaazigar (1993) HDTV 720p Hindi H.264 AAC [EXCLUSIVE] - LatestHDMovies.mkv
Format : Matroska
Format version : Version 4 / Version 2
File size : 1.92 GiB
Duration : 2 h 50 min
Overall bit rate : 1 612 kb/s
Movie name : LatestHDMovies | TeamSHAHID
Encoded date : UTC 2018-05-31 01:00:09
Writing application : mkvmerge v23.0.0 ('The Bride Said No') 32-bit
Writing library : libebml v1.3.6 + libmatroska v1.4.9
Cover : Yes
Attachments : Cover.jpg

Video
ID : 1
Format : AVC
Format/Info : Advanced Video Codec
Format profile : Main@L3.1
Format settings : CABAC / 3 Ref Frames
Format settings, CABAC : Yes
Format settings, ReFrames : 3 frames
Codec ID : V_MPEG4/ISO/AVC
Duration : 2 h 50 min
Bit rate : 1 484 kb/s
Width : 1 280 pixels
Height : 544 pixels
Display aspect ratio : 2.35:1
Frame rate mode : Constant
Frame rate : 25.000 FPS
Color space : YUV
Chroma subsampling : 4:2:0
Bit depth : 8 bits
Scan type : Progressive
Bits/(Pixel*Frame) : 0.085
Stream size : 1.77 GiB (92%)
Title : LatestHDMovies | TeamSHAHID
Language : Hindi
Default : Yes
Forced : No
Color range : Limited
Color primaries : BT.709
Transfer characteristics : BT.709
Matrix coefficients : BT.709

Audio
ID : 2
Format : AAC
Format/Info : Advanced Audio Codec
Format profile : LC
Codec ID : A_AAC-2
Duration : 2 h 50 min
Bit rate : 126 kb/s
Channel(s) : 2 channels
Channel positions : Front: L R
Sampling rate : 44.1 kHz
Frame rate : 43.066 FPS (1024 SPF)
Compression mode : Lossy
Delay relative to video : 82 ms
Stream size : 153 MiB (8%)
Title : LatestHDMovies | TeamSHAHID
Language : Hindi
Default : Yes
Forced : No