Akele Hum Akele Tum (1995) Hindi Movies Full Movie _ Aamir Khan Movies _ Bollywood Full Movies 480p Torrent Download

Movie

Akele Hum Akele Tum

Cateogry

Bollywood

Year

2017

Language

Hindi

Views

1000
Description:

Akele Hum Akele Tum (1995) Hindi Movies Full Movie _ Aamir Khan Movies _ Bollywood Full Movies 480p WEBHD


Storyline
Rohit Kumar (Aamir Khan) is an aspirant playback singer while Kiran (Manisha Koirala) is a classical singer-in-training, but inside aims to be some thing like Rohit. They meet, relate to each other's sentiments and fall in love. But when Kiran's parents oppose their marriage, they decide to lead a separate life. However, after their marriage, Kiran's ambitions take a back seat as she feels suppressed by her household responsibilities and her child to look after. Time fails to abate Kiran's frustration until she decides to leave Rohit and start a new life all over again. Now a loner, Rohit is forced to look after both his son and his falling career on his own. After some obvious teething troubles, Rohit succeeds in creating a separate world of their own with Sonu, his son. Meanwhile, Kiran incidentally becomes a huge film star. When her attempts to reconcile with Rohit backfire, she decides to call the marriage off and also files a case demanding Sonu's custody. But Rohit is not giving...

 

 


Code
General
Complete name : C:UsersALVYDo*censored*entsAkele Hum Akele Tum _ Hindi Movies 2017 Full Movie _ Aamir Khan Movies _ Bollywood Full Movies.mp4
Format : MPEG-4
Format profile : Base Media
Codec ID : isom (isom/iso2/avc1/mp41)
File size : 648 MiB
Duration : 2 h 32 min
Overall bit rate : 593 kb/s
Writing application : Lavf54.63.104

Video
ID : 1
Format : AVC
Format/Info : Advanced Video Codec
Format profile : Main@L3
Format settings, CABAC : Yes
Format settings, ReFrames : 3 frames
Codec ID : avc1
Codec ID/Info : Advanced Video Coding
Duration : 2 h 32 min
Bit rate : 461 kb/s
Width : 600 pixels
Height : 480 pixels
Display aspect ratio : 5:4
Frame rate mode : Constant
Frame rate : 25.000 FPS
Color space : YUV
Chroma subsampling : 4:2:0
Bit depth : 8 bits
Scan type : Progressive
Bits/(Pixel*Frame) : 0.064
Stream size : 504 MiB (78%)
Color range : Limited
Color primaries : BT.601 NTSC
Transfer characteristics : BT.709
Matrix coefficients : BT.601

Audio
ID : 2
Format : AAC
Format/Info : Advanced Audio Codec
Format profile : LC
Codec ID : 40
Duration : 2 h 32 min
Bit rate mode : Constant
Bit rate : 126 kb/s
Channel(s) : 2 channels
Channel positions : Front: L R
Sampling rate : 44.1 kHz
Frame rate : 43.066 FPS (1024 spf)
Compression mode : Lossy
Stream size : 137 MiB (21%)
Default : Yes
Alternate group : 1