Aiyaary (2018) Hindi PreDvDRip Torrent Download

Movie

Aiyaary

Cateogry

Tamil

Year

2017

Language

Hindi

Views

1000
Description:

Aiyaary (201cool1.gif Hindi PreDvDRip x264 AC-3 - AshiQ

Source : Cinevood Ka Houseware Thanks Buddy
Ripper : AshiQ
Format : Matroska
Format version : Version 2
File size : 704 MiB
Duration : 2 h 34 min
Overall bit rate : 635 kb/s

Video

Format : AVC
Format/Info : Advanced Video Codec
Format profile : High@L2.1
Format settings, CABAC : Yes
Format settings, ReFrames : 4 frames
Codec ID : V_MPEG4/ISO/AVC
Duration : 2 h 34 min
Bit rate : 409 kb/s
Width : 640 pixels
Height : 272 pixels
Display aspect ratio : 2.35:1
Frame rate mode : Constant
Frame rate : 25.000 FPS
Color space : YUV
Chroma subsampling : 4:2:0
Bit depth : 8 bits
Scan type : Progressive
Bits/(Pixel*Frame) : 0.094
Stream size : 453 MiB (64%)
Writing library : x264 core 152 r2851 ba24899
Default : Yes
Forced : No

Audio

Format : AC-3
Format/Info : Audio Coding 3
Mode extension : CM (complete main)
Format settings, Endianness : Big
Codec ID : A_AC3
Duration : 2 h 34 min
Bit rate mode : Constant
Bit rate : 224 kb/s
Channel(s) : 2 channels
Channel positions : Front: L R
Sampling rate : 44.1 kHz
Frame rate : 28.711 FPS (1536 spf)
Compression mode : Lossy
Stream size : 248 MiB (35%)
Language : Hindi
Default : Yes
Forced : No