Agnyaathavaasi (2018)[Telugu HQ Real DVD Torrent Download

Movie

Agnyaathavaasi

Cateogry

Tollywood

Year

2017

Language

Telugu

Views

1000
Description:

Plot: An exiled heir to billionaire, returns after his father was murdered, as a regular employee to find out the killers and make things right in his company.
Actors: Pawan Kalyan, Keerthi Suresh, Anu Emmanuel, Aadhi
Awards: N/A
Country: India

 

General
Unique ID : 223849342729343361698153294411410004640 (0xA867D0B237B2DFB2955EE030AF6D5AA0)
Complete name : G:Agnyaathavaasi (201cool1.gif[Telugu HQ Real DVDScr - x264 - 700MB - Line Audio] TamilRockers.mkv
Format : Matroska
Format version : Version 4 / Version 2
File size : 717 MiB
Duration : 2 h 37 min
Overall bit rate : 638 kb/s
Movie name : www.TamilRockers.st
Encoded date : UTC 2018-01-10 10:22:38
Writing application : mkvmerge v7.8.0 ('River Man') 64bit built on Mar 27 2015 16:31:37
Writing library : libebml v1.3.1 + libmatroska v1.4.2

Video
ID : 1
Format : AVC
Format/Info : Advanced Video Codec
Format profile : High@L2.1
Format settings : CABAC / 4 Ref Frames
Format settings, CABAC : Yes
Format settings, RefFrames : 4 frames
Codec ID : V_MPEG4/ISO/AVC
Duration : 2 h 37 min
Bit rate : 540 kb/s
Width : 608 pixels
Height : 256 pixels
Display aspect ratio : 2.40:1
Frame rate mode : Constant
Frame rate : 25.000 FPS
Color space : YUV
Chroma subsampling : 4:2:0
Bit depth : 8 bits
Scan type : Progressive
Bits/(Pixel*Frame) : 0.139
Stream size : 606 MiB (85%)
Title : www.TamilRockers.st
Writing library : x264 core 148 r2744 b97ae06
Encoding settings : cabac=1 / ref=3 / deblock=1:0:0 / *censored*yse=0x3:0x113 / me=hex / subme=7 / psy=1 / psy_rd=1.00:0.00 / mixed_ref=1 / me_range=16 / chroma_me=1 / trellis=1 / 8x8dct=1 / cqm=0 / deadzone=21,11 / fast_pskip=1 / chroma_qp_offset=-2 / threads=8 / lookahead_threads=1 / sliced_threads=0 / nr=0 / decimate=1 / interlaced=0 / bluray_compat=0 / constrained_intra=0 / bframes=3 / b_pyramid=2 / b_adapt=1 / b_bias=0 / direct=1 / weightb=1 / open_gop=0 / weightp=2 / keyint=250 / keyint_min=25 / scenecut=40 / intra_refresh=0 / rc_lookahead=40 / rc=2pass / mbtree=1 / bitrate=540 / ratetol=1.0 / qcomp=0.60 / qpmin=0 / qpmax=69 / qpstep=4 / cplxblur=20.0 / qblur=0.5 / ip_ratio=1.40 / aq=1:1.00
Language : English
Default : Yes
Forced : No

Audio
ID : 2
Format : MPEG Audio
Format version : Version 2
Format profile : Layer 3
Format settings : Joint stereo / MS Stereo
Codec ID : A_MPEG/L3
Codec ID/Hint : MP3
Duration : 2 h 37 min
Bit rate mode : Constant
Bit rate : 96.0 kb/s
Channel(s) : 2 channels
Sampling rate : 22.05 kHz
Frame rate : 38.281 FPS (576 SPF)
Compression mode : Lossy
Stream size : 108 MiB (15%)
Title : www.TamilRockers.st
Writing library : LAME3.99.5
Language : English
Default : Yes
Forced : No