Aashiq Banaya Aapne (2005) Hindi 720p HDRip Torrent Download

Movie

Aashiq Banaya Aapne: Love Takes Over

Cateogry

Bollywood

Year

2017

Language

Hindi

Director

Aditya Datt

Views

1000
Description:

Karan (Sonu Sood) loves Sneha (T*censored*hree Dutta), but is too much of an introvert to ever express his feelings to her. Although Karan's feelings are evident to many, he is content in just seeing Sneha smile, and never gathers the courage to tell her how he feels. Vicky (Emraan Hashmi) tries to talk him out of his relationship with Sneha, but Vicky assures him that this time, he is really in love with Sneha. Karan's childhood friend. Very different from Karan, Vicky is an extrovert and a notorious flirt. All three lives change when Vicky joins Karan and Sneha in college, and Sneha begins feeling drawn towards Vicky. Karan feels he has lost the only woman he has ever loved but knows he cannot do anything about it. However, life goes on, and the three of them share a special bond of friendship. The closeness between Vicky and Sneha cross all boundaries, and just as everything seems set between the two, one eventful night shatters their bond.

 

 

 

 


General
Unique ID : 225962740253096510711403681183696086811 (0xA9FED73D280D0E339D27FE1FE632E71B)
Complete name : Aashiq Banaya Aapne 2005 Hindi 720p HDRip x264 AC3 - Hon3y.mkv
Format : Matroska
Format version : Version 4 / Version 2
File size : 2.18 GiB
Duration : 1 h 49 min
Overall bit rate : 2 867 kb/s
Encoded date : UTC 2017-04-03 23:02:39
Writing application : mkvmerge v9.4.2 ('So High') 64bit
Writing library : libebml v1.3.4 + libmatroska v1.4.5

Video
ID : 1
Format : AVC
Format/Info : Advanced Video Codec
Format profile : High@L4.1
Format settings : CABAC / 8 Ref Frames
Format settings, CABAC : Yes
Format settings, RefFrames : 8 frames
Codec ID : V_MPEG4/ISO/AVC
Duration : 1 h 49 min
Bit rate : 2 673 kb/s
Width : 1 280 pixels
Height : 544 pixels
Display aspect ratio : 2.35:1
Frame rate mode : Constant
Frame rate : 25.000 FPS
Color space : YUV
Chroma subsampling : 4:2:0
Bit depth : 8 bits
Scan type : Progressive
Bits/(Pixel*Frame) : 0.154
Stream size : 2.04 GiB (93%)
Writing library : x264 core 148 r2744 b97ae06
Encoding settings : cabac=1 / ref=8 / deblock=1:-1:-1 / *censored*yse=0x3:0x133 / me=umh / subme=9 / psy=1 / psy_rd=1.00:0.15 / mixed_ref=1 / me_range=16 / chroma_me=1 / trellis=2 / 8x8dct=1 / cqm=0 / deadzone=21,11 / fast_pskip=0 / chroma_qp_offset=-3 / threads=12 / lookahead_threads=1 / sliced_threads=0 / nr=400 / decimate=1 / interlaced=0 / bluray_compat=0 / constrained_intra=0 / bframes=3 / b_pyramid=2 / b_adapt=2 / b_bias=0 / direct=3 / weightb=1 / open_gop=0 / weightp=2 / keyint=250 / keyint_min=25 / scenecut=40 / intra_refresh=0 / rc_lookahead=60 / rc=2pass / mbtree=1 / bitrate=2673 / ratetol=1.0 / qcomp=0.60 / qpmin=0 / qpmax=69 / qpstep=4 / cplxblur=20.0 / qblur=0.5 / ip_ratio=1.40 / aq=1:1.00
Default : Yes
Forced : No

Audio
ID : 2
Format : AC-3
Format/Info : Audio Coding 3
Format settings, Endianness : Big
Codec ID : A_AC3
Duration : 1 h 49 min
Bit rate mode : Constant
Bit rate : 192 kb/s
Channel(s) : 2 channels
Channel positions : Front: L R
Sampling rate : 44.1 kHz
Frame rate : 28.711 FPS (1536 SPF)
Bit depth : 16 bits
Compression mode : Lossy
Stream size : 150 MiB (7%)
Service kind : Complete Main
Default : Yes
Forced : No